<?xml version="1.0" standalone="no"?>
<!DOCTYPE svg PUBLIC "-//W3C//DTD SVG 1.1//EN" "http://www.w3.org/Graphics/SVG/1.1/DTD/svg11.dtd">
<svg xmlns="http://www.w3.org/2000/svg">
<defs >
<font id="DidactGothic" horiz-adv-x="534" ><font-face
    font-family="Didact Gothic"
    units-per-em="1000"
    panose-1="0 0 5 0 0 0 0 0 0 0"
    ascent="1046"
    descent="-265"
    alphabetic="0" />
<glyph unicode=" " glyph-name="space" horiz-adv-x="223" />
<glyph unicode="!" glyph-name="exclam" horiz-adv-x="232" d="M82 186V682H150V186H82ZM95 -8T79 8T63 47Q63 69 79 85T117 101Q140 101 155 85T171 46Q171 24 156 8T117 -8Q95 -8 79 8Z" />
<glyph unicode="&quot;" glyph-name="quotedbl" horiz-adv-x="288" d="M316 454L306 682H374L364 454H316ZM180 454L170 682H238L228 454H180Z" />
<glyph unicode="#" glyph-name="numbersign" horiz-adv-x="612" d="M592 415H482L465 273H562V211H457L434 30H372L395 211H226L203 30H141L164 211H60V273H172L189 415H90V477H197L222 673H284L259 477H428L453 673H515L490 477H592V415ZM403 273L420 415H251L234
273H403Z" />
<glyph unicode="$" glyph-name="dollar" horiz-adv-x="583" d="M448 353T499 308T551 180Q551 106 496 58T347 6V-88H306V6Q238 10 176 45T71 136L130 187Q161 139 208 109T310 72V320Q108 369 108 503Q108 586 162 630T315 677V770H356V675Q476 664 554 570L497
522Q467 562 433 583T354 611V379Q448 353 499 308ZM181 464T211 438T313 390V613Q255 611 218 583T181 509Q181 464 211 438ZM413 73T445 102T478 180Q478 231 447 260T351 309V70Q413 73 445 102Z" />
<glyph unicode="%" glyph-name="percent" horiz-adv-x="738" d="M175 -9L119 19L549 702L603 673L175 -9ZM129 343T96 365T44 427T25 518Q25 590 65 636T169 682Q232 682 272 636T313 518Q313 468 295 428T245 366T171 343Q129 343 96 365ZM205 403T229 434T254
516Q254 563 230 593T167 623Q130 623 107 594T84 518Q84 467 107 435T167 403Q205 403 229 434ZM529 0T496 22T444 84T425 175Q425 247 465 293T569 339Q632 339 672 293T713 175Q713 125 695 85T645 23T571 0Q529 0 496 22ZM605 60T629 91T654 173Q654 220 630
250T567 280Q530 280 507 251T484 175Q484 124 507 92T567 60Q605 60 629 91Z" />
<glyph unicode="&amp;" glyph-name="ampersand" horiz-adv-x="532" d="M462 0L407 66Q333 -17 218 -17Q134 -17 90 27T45 146Q45 206 73 250T165 353L146 376Q105 425 90 462T75 538Q75 608 112 648T220 688Q282 688 323 655T365 550Q365 493 335 446T251 350L402
168Q419 207 427 247L486 239Q471 168 443 118L542 0H462ZM143 507T154 479T197 414L212 396Q257 441 276 473T296 541Q296 583 276 604T221 626Q185 626 164 604T143 542Q143 507 154 479ZM313 45T368 112L203 308Q158 267 136 228T114 148Q114 101 143 73T228
45Q313 45 368 112Z" />
<glyph unicode="&apos;" glyph-name="quotesingle" horiz-adv-x="186" d="M69 454L59 682H127L117 454H69Z" />
<glyph unicode="(" glyph-name="parenleft" horiz-adv-x="234" d="M149 -46T115 -3T62 127T43 339Q43 464 62 551T115 683T194 727V665Q169 665 150 623T120 506T109 339Q109 248 120 174T150 58T194 16V-46Q149 -46 115 -3Z" />
<glyph unicode=")" glyph-name="parenright" horiz-adv-x="234" d="M43 16Q67 16 86 58T117 174T128 339Q128 431 117 505T87 622T43 665V727Q88 727 122 683T175 552T194 339Q194 214 175 128T122 -2T43 -46V16Z" />
<glyph unicode="*" glyph-name="asterisk" horiz-adv-x="356" d="M135 444L94 468L138 544H50V591H137L94 666L135 689L179 614L222 689L263 666L220 591H306V544H219L263 468L222 444L179 519L135 444Z" />
<glyph unicode="+" glyph-name="plus" horiz-adv-x="500" d="M220 113V283H50V338H220V518H280V338H450V283H280V113H220Z" />
<glyph unicode="," glyph-name="comma" horiz-adv-x="204" d="M48 -108Q104 -71 104 -8Q80 -8 64 7T47 47Q47 72 62 86T101 101Q126 101 142 83T158 36Q158 -13 130 -58T58 -127L48 -108Z" />
<glyph unicode="-" glyph-name="hyphen" horiz-adv-x="340" d="M57 218V274H284V218H57Z" />
<glyph unicode="." glyph-name="period" horiz-adv-x="203" d="M79 -8T64 8T48 47Q48 69 63 85T101 101Q124 101 140 85T156 46Q156 24 140 8T101 -8Q79 -8 64 8Z" />
<glyph unicode="/" glyph-name="slash" horiz-adv-x="377" d="M34 0L282 682H344L96 0H34Z" />
<glyph unicode="0" glyph-name="zero" horiz-adv-x="561" d="M205 -16T149 30T61 157T29 341Q29 443 61 524T148 651T271 697Q338 697 393 652T481 525T513 341Q513 239 481 158T394 30T272 -16Q205 -16 149 30ZM319 50T356 86T414 189T435 341Q435 426 414 492T356
594T271 631Q223 631 186 595T127 492T106 341Q106 256 127 190T185 87T271 50Q319 50 356 86Z" />
<glyph unicode="1" glyph-name="one" horiz-adv-x="414" d="M240 682H308V0H240V570L78 410L40 448L240 682Z" />
<glyph unicode="2" glyph-name="two" horiz-adv-x="499" d="M39 43Q39 87 59 124T110 191T192 264Q224 290 226 292Q291 347 327 400T363 522Q363 570 331 599T245 629Q196 629 156 605T80 533L25 580Q65 635 123 666T245 697Q334 697 387 650T440 522Q440 438
392 372T260 235Q239 217 240 218Q178 167 148 134T118 68H449V0H39V43Z" />
<glyph unicode="3" glyph-name="three" horiz-adv-x="531" d="M403 346T437 298T471 187Q471 129 443 83T365 10T256 -16Q182 -16 129 22T50 124L110 159Q134 108 171 79T259 49Q318 49 357 88T397 187Q397 249 357 289T255 329H207V391H251Q306 391 339 426T372
518Q372 569 341 601T260 634Q208 634 172 606T110 524L55 554Q84 620 137 658T260 697Q313 697 355 674T420 611T444 518Q444 464 419 423T348 363Q403 346 437 298Z" />
<glyph unicode="4" glyph-name="four" horiz-adv-x="574" d="M527 220V152H440V0H372V152H30V220L372 682H440V220H527ZM102 220H372V576L102 220Z" />
<glyph unicode="5" glyph-name="five" horiz-adv-x="561" d="M386 442T441 382T497 215Q497 106 439 45T275 -16Q207 -16 149 7T56 74L109 111Q134 80 178 63T277 46Q349 46 389 90T430 215Q429 293 390 336T281 380Q237 380 188 366T96 325V682H462V612H164V420Q227
442 287 442Q386 442 441 382Z" />
<glyph unicode="6" glyph-name="six" horiz-adv-x="551" d="M332 464T384 433T466 348T496 224Q496 155 467 101T386 15T270 -16Q206 -16 154 18T72 115T42 255Q42 401 91 500T226 648T420 697V633Q298 633 219 569T118 387Q139 424 182 444T268 464Q332 464 384
433ZM313 46T349 69T407 132T428 224Q428 275 407 315T350 379T268 402Q195 402 153 355T110 235Q110 181 131 138T188 70T268 46Q313 46 349 69Z" />
<glyph unicode="7" glyph-name="seven" horiz-adv-x="467" d="M45 682H457L213 0H144L364 612H45V682Z" />
<glyph unicode="8" glyph-name="eight" horiz-adv-x="554" d="M213 -16T160 10T76 84T45 194Q45 263 80 308T183 373Q74 412 74 519Q74 574 101 614T175 675T277 697Q333 697 379 676T453 614T480 519Q480 412 372 373Q440 350 474 307T509 194Q509 133 479 85T396
11T278 -16Q213 -16 160 10ZM339 406T372 434T406 518Q406 575 372 602T277 630Q217 630 182 602T147 519Q147 462 183 434T278 406Q339 406 372 434ZM351 51T393 88T436 195Q436 265 394 302T277 339Q203 339 160 302T117 196Q117 126 159 89T276 51Q351 51 393
88Z" />
<glyph unicode="9" glyph-name="nine" horiz-adv-x="561" d="M336 697T388 663T470 566T500 426Q500 280 451 181T316 33T122 -16V48Q244 48 323 112T424 294Q403 257 360 237T274 217Q210 217 158 248T76 333T46 457Q46 526 75 580T156 666T272 697Q336 697 388
663ZM347 279T389 326T432 446Q432 500 411 543T354 611T274 635Q229 635 193 612T135 549T114 457Q114 406 135 366T192 302T274 279Q347 279 389 326Z" />
<glyph unicode=":" glyph-name="colon" horiz-adv-x="220" d="M88 363T72 379T56 418Q56 440 72 456T110 472Q133 472 148 456T164 418Q164 396 149 380T110 363Q88 363 72 379ZM88 -8T72 8T56 47Q56 69 72 85T110 101Q133 101 148 85T164 46Q164 24 149 8T110
-8Q88 -8 72 8Z" />
<glyph unicode=";" glyph-name="semicolon" horiz-adv-x="220" d="M56 -108Q112 -71 112 -8Q88 -8 72 7T55 47Q55 72 70 86T109 101Q134 101 150 83T166 36Q166 -13 138 -58T66 -127L56 -108ZM88 364T72 380T56 419Q56 441 72 457T110 473Q133 473 148 457T164
418Q164 396 149 380T110 364Q88 364 72 380Z" />
<glyph unicode="&lt;" glyph-name="less" horiz-adv-x="500" d="M410 438L126 286L410 131L384 84L25 285L384 486L410 438Z" />
<glyph unicode="=" glyph-name="equal" horiz-adv-x="500" d="M50 346V401H450V346H50ZM50 216V271H450V216H50Z" />
<glyph unicode="&gt;" glyph-name="greater" horiz-adv-x="500" d="M116 486L475 285L116 84L90 131L374 286L90 438L116 486Z" />
<glyph unicode="?" glyph-name="question" horiz-adv-x="461" d="M185 240T197 274T231 329T296 382Q328 405 341 433T354 497Q354 561 319 598T225 635Q173 635 139 610T92 539L29 559Q52 620 103 658T227 697Q278 697 323 671T395 601T422 504Q422 440 399 405T333
336Q301 311 285 296T256 253T244 186H185Q185 240 197 274ZM188 -8T172 8T155 46Q155 68 171 84T209 101Q231 101 247 85T264 46Q264 25 247 9T209 -8Q188 -8 172 8Z" />
<glyph unicode="@" glyph-name="at" horiz-adv-x="742" d="M486 695T558 646T670 507T709 303Q709 232 691 176T641 88T567 56Q531 56 507 78T472 143Q456 99 429 77T369 55Q323 55 286 83T229 162T208 278Q208 341 228 390T285 468T367 496Q432 496 464 431V479H526V177Q526
150 537 137T567 124Q600 124 621 175T642 307Q642 403 612 476T524 591T387 633Q310 633 245 589T141 468T102 292Q102 183 140 98T247 -36T403 -84Q428 -84 465 -77T535 -58L562 -116Q525 -129 481 -137T403 -146Q296 -146 212 -91T81 64T34 289Q34 405 81 498T209
643T387 695Q486 695 558 646ZM415 116T439 159T464 275Q464 345 437 389T367 434Q324 434 297 390T269 275Q269 205 296 161T367 116Q415 116 439 159Z" />
<glyph unicode="A" glyph-name="A" horiz-adv-x="585" d="M503 0L433 191H150L87 0H12L254 682H324L573 0H503ZM173 253H410L288 584L173 253Z" />
<glyph unicode="B" glyph-name="B" horiz-adv-x="574" d="M469 352T501 309T533 196Q533 105 478 53T327 0H79V682H304Q395 682 447 635T499 508Q499 457 476 421T410 367Q469 352 501 309ZM154 391H313Q420 391 420 508Q420 561 389 590T303 619H154V391ZM381
62T417 98T454 196Q454 258 418 293T317 329H154V62H317Q381 62 417 98Z" />
<glyph unicode="C" glyph-name="C" horiz-adv-x="605" d="M247 -16T185 26T89 148T55 339Q55 451 87 531T180 654T324 697Q409 697 469 660T564 554L504 519Q472 578 429 603T324 629Q235 629 185 553T134 340Q134 251 157 186T223 87T323 52Q394 52 433 83T507
182L570 144Q534 66 475 25T333 -16Q247 -16 185 26Z" />
<glyph unicode="D" glyph-name="D" horiz-adv-x="641" d="M80 682H249Q354 682 430 642T546 524T586 340Q586 180 497 90T249 0H80V682ZM247 68Q369 68 438 135T507 340Q507 479 438 546T247 613H155V68H247Z" />
<glyph unicode="E" glyph-name="E" horiz-adv-x="503" d="M79 0V682H461V619H154V381H394V320H154V62H464V0H79Z" />
<glyph unicode="F" glyph-name="F" horiz-adv-x="451" d="M79 0V682H451V619H154V381H374V320H154V0H79Z" />
<glyph unicode="G" glyph-name="G" horiz-adv-x="606" d="M221 -16T159 26T63 148T29 339Q29 451 62 531T158 654T307 697Q386 697 443 662T542 557L483 515Q420 629 307 629Q213 629 161 553T108 340Q108 205 161 129T307 52Q359 52 400 77T466 151T490 271H329V333H564V271Q564
178 531 114T440 17T307 -16Q221 -16 159 26Z" />
<glyph unicode="H" glyph-name="H" horiz-adv-x="670" d="M80 0V682H155V387H515V682H590V0H515V325H155V0H80Z" />
<glyph unicode="I" glyph-name="I" horiz-adv-x="317" d="M55 0V66H121V616H55V682H262V616H196V66H262V0H55Z" />
<glyph unicode="J" glyph-name="J" horiz-adv-x="496" d="M145 -16T93 21T12 127L75 157Q90 109 127 82T211 54Q275 54 308 93T341 205V682H416V205Q416 101 362 43T215 -16Q145 -16 93 21Z" />
<glyph unicode="K" glyph-name="K" horiz-adv-x="545" d="M460 0L226 328L154 243V0H79V682H154V337L442 682H525L270 380L545 0H460Z" />
<glyph unicode="L" glyph-name="L" horiz-adv-x="476" d="M79 0V682H154V62H461V0H79Z" />
<glyph unicode="M" glyph-name="M" horiz-adv-x="825" d="M661 682H745V0H671V545L443 0H373L155 543V0H80V682H172L411 84L661 682Z" />
<glyph unicode="N" glyph-name="N" horiz-adv-x="662" d="M80 0V682H160L507 113V682H582V0H502L155 567V0H80Z" />
<glyph unicode="O" glyph-name="O" horiz-adv-x="696" d="M263 -16T197 29T93 156T55 340Q55 443 92 524T196 651T348 697Q433 697 499 652T603 525T641 339Q641 236 604 156T500 30T348 -16Q263 -16 197 29ZM410 53T459 89T537 191T565 340Q565 423 537 489T460
592T348 629Q286 629 237 592T159 489T131 340Q131 257 159 192T236 90T348 53Q410 53 459 89Z" />
<glyph unicode="P" glyph-name="P" horiz-adv-x="535" d="M80 682H308Q400 682 455 626T510 471Q510 373 453 317T300 261H155V0H80V682ZM298 323Q365 323 400 360T435 471Q435 544 400 582T298 620H155V323H298Z" />
<glyph unicode="Q" glyph-name="Q" horiz-adv-x="670" d="M641 258T617 190T549 72L608 14L564 -29L503 32Q435 -16 348 -16Q263 -16 197 29T93 156T55 340Q55 443 92 524T196 651T348 697Q433 697 499 652T603 525T641 339Q641 258 617 190ZM403 53T450 83L366
167L410 211L497 125Q529 164 547 219T565 340Q565 423 537 489T460 592T348 629Q286 629 237 592T159 489T131 340Q131 257 159 192T236 90T348 53Q403 53 450 83Z" />
<glyph unicode="R" glyph-name="R" horiz-adv-x="580" d="M462 0L289 301H154V0H79V682H307Q369 682 416 658T488 591T513 491Q513 423 472 375T363 309L541 0H462ZM154 363H297Q363 363 398 398T434 491Q434 549 399 584T297 620H154V363Z" />
<glyph unicode="S" glyph-name="S" horiz-adv-x="583" d="M232 -16T161 21T43 123L104 177Q140 120 196 87T317 53Q388 53 425 84T462 170Q462 229 423 260T297 316Q81 369 81 512Q81 601 139 649T300 697Q375 697 434 669T541 583L482 533Q446 582 403 605T300
629Q237 629 197 600T157 519Q157 467 194 437T319 385Q423 357 480 308T538 170Q538 115 510 73T430 8T307 -16Q232 -16 161 21Z" />
<glyph unicode="T" glyph-name="T" d="M230 0V620H15V682H519V620H304V0H230Z" />
<glyph unicode="U" glyph-name="U" horiz-adv-x="660" d="M206 -16T143 52T80 253V682H155V253Q155 52 332 52Q412 52 458 104T505 253V682H580V253Q580 123 515 54T332 -16Q206 -16 143 52Z" />
<glyph unicode="V" glyph-name="V" horiz-adv-x="555" d="M482 682H555L317 0H237L0 682H75L277 83L482 682Z" />
<glyph unicode="W" glyph-name="W" horiz-adv-x="851" d="M758 682H829L647 0H569L427 548L281 0H204L22 682H99L245 108L397 682H458L611 103L758 682Z" />
<glyph unicode="X" glyph-name="X" horiz-adv-x="516" d="M511 0H427L255 284L94 0H10L207 337L5 682H86L256 391L430 682H508L303 344L511 0Z" />
<glyph unicode="Y" glyph-name="Y" horiz-adv-x="484" d="M430 682H499L278 279V0H204V282L-15 682H60L246 342L430 682Z" />
<glyph unicode="Z" glyph-name="Z" horiz-adv-x="503" d="M38 0V63L400 620H48V682H474V607L118 62H464V0H38Z" />
<glyph unicode="[" glyph-name="bracketleft" horiz-adv-x="259" d="M67 -39V721H239V682H142V0H239V-39H67Z" />
<glyph unicode="\" glyph-name="backslash" horiz-adv-x="377" d="M281 0L33 682H95L343 0H281Z" />
<glyph unicode="]" glyph-name="bracketright" horiz-adv-x="259" d="M20 -39V0H118V682H20V721H192V-39H20Z" />
<glyph unicode="^" glyph-name="asciicircum" horiz-adv-x="500" d="M466 369L422 333L250 559L77 333L35 369L251 656L466 369Z" />
<glyph unicode="_" glyph-name="underscore" horiz-adv-x="458" d="M0 -86V-27H458V-86H0Z" />
<glyph unicode="`" glyph-name="grave" horiz-adv-x="388" d="M289 567L59 684L93 742L309 601L289 567Z" />
<glyph unicode="a" glyph-name="a" horiz-adv-x="561" d="M498 468V0H430V69Q401 29 359 7T267 -16Q200 -16 147 16T64 105T34 235Q34 307 63 363T145 452T265 484Q316 484 358 462T430 398V468H498ZM313 46T350 70T409 137T430 234Q430 288 409 331T351 398T265
422Q218 422 181 398T123 332T102 235Q102 180 123 137T181 70T265 46Q313 46 350 70Z" />
<glyph unicode="b" glyph-name="b" horiz-adv-x="561" d="M364 484T416 452T498 364T528 235Q528 162 498 105T415 16T295 -16Q245 -16 203 6T132 69V0H64V726H132V398Q161 439 203 461T297 484Q364 484 416 452ZM344 46T381 70T439 137T460 235Q460 289 439 331T381
398T297 422Q249 422 212 398T153 331T132 234Q132 180 153 137T211 70T297 46Q344 46 381 70Z" />
<glyph unicode="c" glyph-name="c" horiz-adv-x="477" d="M198 -16T145 16T62 105T32 234Q32 306 61 363T144 452T264 484Q321 484 363 460T441 390L391 351Q342 422 264 422Q217 422 180 398T121 331T100 234Q100 180 121 137T179 70T264 46Q312 46 343 62T399
111L452 74Q419 33 371 9T266 -16Q198 -16 145 16Z" />
<glyph unicode="d" glyph-name="d" horiz-adv-x="561" d="M498 726V0H430V69Q401 29 359 7T267 -16Q200 -16 147 16T64 105T34 235Q34 307 63 363T145 452T265 484Q316 484 358 462T430 398V726H498ZM313 46T350 70T409 137T430 234Q430 288 409 331T351 398T265
422Q218 422 181 398T123 332T102 235Q102 180 123 137T181 70T265 46Q313 46 350 70Z" />
<glyph unicode="e" glyph-name="e" horiz-adv-x="525" d="M328 484T379 453T459 369T488 249Q488 230 487 220H102Q106 148 149 97T266 46Q326 46 365 68T429 131L483 95Q450 43 396 14T268 -16Q200 -16 147 16T64 105T34 234Q34 306 63 363T145 452T265 484Q328
484 379 453ZM420 276Q410 349 371 385T265 422Q200 422 159 381T106 276H420Z" />
<glyph unicode="f" glyph-name="f" horiz-adv-x="275" d="M201 681T179 657T156 595V468H264V406H156V0H88V406H28V468H88V595Q88 660 129 701T236 743H264V681H236Q201 681 179 657Z" />
<glyph unicode="g" glyph-name="g" horiz-adv-x="561" d="M498 468V18Q498 -45 472 -94T399 -172T292 -200H98V-138H292Q353 -138 391 -94T430 18V69Q401 29 359 7T267 -16Q200 -16 147 16T64 105T34 235Q34 307 63 363T145 452T265 484Q316 484 358 462T430 398V468H498ZM313
46T350 70T409 137T430 234Q430 288 409 331T351 398T265 422Q218 422 181 398T123 332T102 235Q102 180 123 137T181 70T265 46Q313 46 350 70Z" />
<glyph unicode="h" glyph-name="h" d="M335 484T376 464T442 405T467 313V0H399V283Q399 422 275 422Q203 422 167 371T131 234V0H63V726H131V390Q155 435 194 459T286 484Q335 484 376 464Z" />
<glyph unicode="i" glyph-name="i" horiz-adv-x="268" d="M100 0V468H168V0H100ZM111 559T96 575T80 614Q80 636 95 651T134 667Q156 667 172 652T188 613Q188 591 172 575T134 559Q111 559 96 575Z" />
<glyph unicode="j" glyph-name="j" horiz-adv-x="193" d="M-45 -138H-17Q18 -138 40 -114T63 -52V468H131V-52Q131 -117 90 -158T-17 -200H-45V-138ZM74 559T59 575T43 614Q43 636 58 651T97 667Q119 667 135 652T151 613Q151 591 135 575T97 559Q74 559 59 575Z" />
<glyph unicode="k" glyph-name="k" horiz-adv-x="436" d="M352 0L188 241L131 186V0H63V726H131V272L336 468H424L235 286L428 0H352Z" />
<glyph unicode="l" glyph-name="l" horiz-adv-x="203" d="M68 0V726H136V0H68Z" />
<glyph unicode="m" glyph-name="m" horiz-adv-x="770" d="M626 484T669 439T712 313V0H644V283Q644 357 616 389T543 422Q488 422 458 380T422 264V0H354V283Q354 357 326 389T253 422Q192 422 162 371T131 234V0H63V468H131V395Q154 438 189 461T271 484Q322
484 360 457T413 378Q435 428 473 456T561 484Q626 484 669 439Z" />
<glyph unicode="n" glyph-name="n" horiz-adv-x="537" d="M335 484T376 464T442 405T467 313V0H399V283Q399 422 275 422Q203 422 167 371T131 234V0H63V468H131V390Q155 435 194 459T286 484Q335 484 376 464Z" />
<glyph unicode="o" glyph-name="o" horiz-adv-x="531" d="M200 -16T147 16T64 105T34 235Q34 307 63 363T145 452T265 484Q332 484 385 452T468 363T498 234Q498 162 469 105T387 16T267 -16Q200 -16 147 16ZM313 46T350 70T409 137T430 234Q430 288 409 331T351
398T265 422Q218 422 181 398T123 332T102 235Q102 180 123 137T181 70T265 46Q313 46 350 70Z" />
<glyph unicode="p" glyph-name="p" horiz-adv-x="561" d="M362 484T415 452T498 363T528 233Q528 161 499 105T417 16T297 -16Q246 -16 204 6T132 70V-200H64V468H132V399Q161 439 203 461T295 484Q362 484 415 452ZM344 46T381 70T439 136T460 233Q460 288 439
331T381 398T297 422Q249 422 212 398T153 331T132 234Q132 180 153 137T211 70T297 46Q344 46 381 70Z" />
<glyph unicode="q" glyph-name="q" horiz-adv-x="561" d="M499 468V-200H431V70Q402 29 360 7T266 -16Q199 -16 147 16T65 104T35 233Q35 306 65 363T148 452T268 484Q318 484 360 462T431 399V468H499ZM314 46T351 70T410 137T431 234Q431 288 410 331T352 398T266
422Q219 422 182 398T124 331T103 233Q103 179 124 137T182 70T266 46Q314 46 351 70Z" />
<glyph unicode="r" glyph-name="r" horiz-adv-x="339" d="M317 484T339 477V415Q318 425 293 425Q250 425 213 401T154 332T131 224V0H63V468H131V374Q158 426 199 455T293 484Q317 484 339 477Z" />
<glyph unicode="s" glyph-name="s" horiz-adv-x="464" d="M160 -16T109 13T30 95L91 125Q128 46 236 46Q288 46 322 65T356 124Q356 165 329 185T232 211Q136 219 95 254T53 347Q53 412 100 448T229 484Q368 484 418 374L357 344Q340 384 308 403T224 422Q172
422 145 403T117 349Q117 316 146 296T248 269Q337 261 380 226T424 132Q424 85 397 52T325 1T228 -16Q160 -16 109 13Z" />
<glyph unicode="t" glyph-name="t" horiz-adv-x="275" d="M88 0V406H8V468H88V623H156V468H264V406H156V0H88Z" />
<glyph unicode="u" glyph-name="u" horiz-adv-x="537" d="M474 468V0H406V78Q382 33 343 9T251 -16Q202 -16 161 4T95 63T70 155V468H138V185Q138 46 262 46Q334 46 370 97T406 234V468H474Z" />
<glyph unicode="v" glyph-name="v" horiz-adv-x="455" d="M366 468H435L265 0H190L21 468H92L230 73L366 468Z" />
<glyph unicode="w" glyph-name="w" horiz-adv-x="719" d="M633 468H698L546 0H475L361 359L238 0H170L16 468H88L208 96L330 468H396L514 98L633 468Z" />
<glyph unicode="x" glyph-name="x" horiz-adv-x="462" d="M430 0H352L230 195L108 0H32L182 240L41 468H118L231 284L350 468H425L278 241L430 0Z" />
<glyph unicode="y" glyph-name="y" horiz-adv-x="449" d="M385 468H449L196 -200H128L202 -9L10 468H81L236 80L385 468Z" />
<glyph unicode="z" glyph-name="z" horiz-adv-x="420" d="M383 468V406L115 62H383V0H37V62L305 406H37V468H383Z" />
<glyph unicode="{" glyph-name="braceleft" horiz-adv-x="247" d="M149 -51T112 -16T75 77Q75 102 79 160Q80 177 81 195T82 233Q82 257 58 284T7 315V361Q36 366 62 391T89 443Q89 471 82 518Q81 527 78 553T75 599Q75 657 112 692T212 727V681Q179 681 157 662T134
610Q134 588 135 569T137 535Q141 475 141 444Q141 375 72 338Q140 300 140 232Q140 207 136 143Q135 126 134 106T133 66Q133 31 156 13T213 -5V-51Q149 -51 112 -16Z" />
<glyph unicode="|" glyph-name="bar" horiz-adv-x="173" d="M66 -138V750H117V-138H66Z" />
<glyph unicode="}" glyph-name="braceright" horiz-adv-x="247" d="M27 -5Q61 -5 84 13T107 66Q107 86 106 106T104 143Q100 207 100 232Q100 300 168 338Q99 375 99 444Q99 475 103 535Q104 550 105 569T106 610Q106 642 84 661T28 681V727Q91 727 128 692T165
599Q165 579 162 553T158 518Q151 471 151 443Q151 417 177 392T233 361V315Q206 311 182 284T158 233Q158 214 159 196T161 160Q165 102 165 77Q165 20 128 -15T27 -51V-5Z" />
<glyph unicode="~" glyph-name="asciitilde" horiz-adv-x="500" d="M312 257T293 264T245 287Q216 302 198 309T156 316Q131 316 112 307T73 281L50 318Q95 371 163 371Q192 371 212 363T261 340Q286 326 302 319T342 312Q385 312 424 344L450 311Q429 285 399
271T337 257Q312 257 293 264Z" />
<glyph unicode="&#xa0;" glyph-name="uni00A0" horiz-adv-x="223" />
<glyph unicode="&#xa1;" glyph-name="exclamdown" horiz-adv-x="230" d="M139 584T154 568T170 530Q170 507 155 491T116 475Q94 475 78 491T62 529Q62 552 78 568T116 584Q139 584 154 568ZM81 390H149V-106H81V390Z" />
<glyph unicode="&#xa2;" glyph-name="cent" horiz-adv-x="477" d="M422 136T378 112T281 84V-8H240V85Q179 91 132 124T59 212T32 334Q32 402 58 456T132 544T240 583V650H281V583Q332 579 370 556T441 490L391 451Q348 514 281 521V147Q322 150 349 166T399 211L452
174Q422 136 378 112ZM100 259T138 208T240 148V520Q177 511 139 460T100 334Q100 259 138 208Z" />
<glyph unicode="&#xa3;" glyph-name="sterling" horiz-adv-x="470" d="M242 225T213 173T128 62H435V0H53V62Q115 122 142 171T170 264Q170 292 160 318H60V366H138Q136 370 112 404Q85 439 71 469T56 540Q56 590 84 625T159 679T257 697Q311 697 355 678T425
626T451 551H372Q372 588 340 608T257 629Q205 629 170 608T134 546Q134 522 143 502T174 449Q192 422 207 397L223 366H372V318H238Q242 301 242 279Q242 225 213 173Z" />
<glyph unicode="&#xa4;" glyph-name="currency" horiz-adv-x="488" d="M427 358T427 297Q427 236 389 187L443 133L407 97L353 151Q303 113 243 113Q183 113 134 150L81 97L45 133L98 186Q61 235 61 296Q61 357 98 406L45 459L81 495L134 442Q184 480 244 480Q305
480 355 442L407 495L443 459L390 407Q427 358 427 297ZM193 173T243 173Q266 173 289 182T331 210Q349 228 358 250T367 297Q367 340 340 373L321 392Q288 419 244 419Q220 419 198 410T157 383Q121 347 121 296Q121 272 130 250T157 209Q193 173 243 173Z" />
<glyph unicode="&#xa5;" glyph-name="yen" horiz-adv-x="484" d="M499 682L288 297H372V249H278V197H372V149H278V0H204V149H110V197H204V249H110V297H196L-15 682H60L246 342L430 682H499Z" />
<glyph unicode="&#xa6;" glyph-name="brokenbar" horiz-adv-x="179" d="M69 389V750H110V389H69ZM69 -68V293H110V-68H69Z" />
<glyph unicode="&#xa7;" glyph-name="section" horiz-adv-x="438" d="M398 279T383 255T336 208Q372 169 372 116Q372 61 332 23T225 -15Q172 -15 124 5T45 70L97 102Q128 47 216 47Q257 47 280 64T304 116Q304 152 281 172T205 208Q128 230 95 266T62 350Q62
382 79 410T128 451Q84 489 84 547Q84 604 125 641T229 678Q318 678 374 602L327 564Q308 590 286 603T232 616Q196 616 175 599T153 548Q153 483 246 457Q327 435 362 402T398 311Q398 279 383 255ZM120 327T144 305T221 269Q262 259 295 240Q317 256 325 271T333
310Q333 343 310 363T228 400Q195 409 163 426Q120 404 120 362Q120 327 144 305Z" />
<glyph unicode="&#xa8;" glyph-name="dieresis" horiz-adv-x="464" d="M112 559T96 575T80 614Q80 636 96 651T134 667Q157 667 173 652T189 613Q189 591 173 575T134 559Q112 559 96 575ZM306 559T291 575T275 614Q275 636 290 651T328 667Q351 667 367 652T384
613Q384 591 368 575T328 559Q306 559 291 575Z" />
<glyph unicode="&#xa9;" glyph-name="copyright" horiz-adv-x="702" d="M265 -21T195 20T85 132T45 286Q45 371 86 441T198 552T351 593Q436 593 506 551T617 439T658 286Q658 200 617 130T505 20T351 -21Q265 -21 195 20ZM424 26T483 61T577 156T611 286Q611
358 576 418T481 512T351 546Q277 546 218 511T125 417T91 286Q91 213 126 154T220 60T351 26Q424 26 483 61ZM286 112T241 160T196 283Q196 332 216 371T273 432T355 454Q388 454 423 435T480 386L435 357Q420 377 398 390T355 403Q309 403 280 370T251 283Q251
230 280 196T355 162Q380 162 405 175T444 208L487 178Q465 149 429 131T356 112Q286 112 241 160Z" />
<glyph unicode="&#xaa;" glyph-name="ordfeminine" horiz-adv-x="408" d="M348 687V396H297V436Q280 413 256 400T204 387Q141 387 101 430T60 542Q60 609 100 652T204 696Q232 696 256 684T297 648V687H348ZM245 434T271 464T297 543Q297 590 271 619T202 649Q162
649 136 619T110 541Q110 494 136 464T204 434Q245 434 271 464ZM60 285V336H348V285H60Z" />
<glyph unicode="&#xab;" glyph-name="guillemotleft" horiz-adv-x="504" d="M274 417L132 269L274 119L231 82L40 268L231 455L274 417ZM444 417L302 269L444 119L401 82L210 268L401 455L444 417Z" />
<glyph unicode="&#xac;" glyph-name="logicalnot" horiz-adv-x="500" d="M382 160V283H50V338H450V160H382Z" />
<glyph unicode="&#xad;" glyph-name="uni00AD" horiz-adv-x="332" d="M57 218V274H284V218H57Z" />
<glyph unicode="&#xae;" glyph-name="registered" horiz-adv-x="702" d="M436 593T506 551T617 439T658 286Q658 200 617 130T505 20T351 -21Q265 -21 195 20T85 132T45 286Q45 371 86 441T198 552T351 593Q436 593 506 551ZM424 26T483 61T577 156T611 286Q611
358 576 418T481 512T351 546Q277 546 218 511T125 417T91 286Q91 213 126 154T220 60T351 26Q424 26 483 61ZM474 315T458 291T412 257L495 117L433 116L352 250H291V117H236V449H365Q415 449 444 424T474 350Q474 315 458 291ZM291 301H366Q392 301 404 314T416
350Q416 372 404 385T366 399H291V301Z" />
<glyph unicode="&#xaf;" glyph-name="overscore" horiz-adv-x="405" d="M59 586V631H326V586H59Z" />
<glyph unicode="&#xb0;" glyph-name="degree" horiz-adv-x="369" d="M125 429T88 466T50 562Q50 621 87 659T184 697Q243 697 281 659T319 561Q319 503 281 466T184 429Q125 429 88 466ZM219 482T241 504T264 562Q264 598 242 621T184 644Q149 644 127 621T104
562Q104 527 126 505T184 482Q219 482 241 504Z" />
<glyph unicode="&#xb1;" glyph-name="plusminus" horiz-adv-x="500" d="M220 216V346H50V401H220V541H280V401H450V346H280V216H220ZM50 116V171H450V116H50Z" />
<glyph unicode="&#xb2;" glyph-name="uni00B2" horiz-adv-x="347" d="M47 290Q47 333 72 364T149 439L167 454Q204 486 223 513T243 571Q243 604 227 620T175 637Q149 637 123 621T75 574L35 611Q65 653 98 671T180 689Q233 689 267 657T301 570Q301 537 288 511T256
466T201 417Q116 351 108 312H307V258H47V290Z" />
<glyph unicode="&#xb3;" glyph-name="uni00B3" horiz-adv-x="340" d="M254 472T277 445T300 380Q300 323 263 288T165 253Q116 253 80 276T27 346L72 373Q85 338 108 323T170 307Q201 307 222 327T244 380Q244 414 223 435T166 456H129V509H164Q194 509 213 527T232
576Q232 603 214 620T169 637Q137 637 114 621T75 570L30 595Q51 641 87 665T169 689Q222 689 254 659T287 576Q287 544 268 520T214 483Q254 472 277 445Z" />
<glyph unicode="&#xb4;" glyph-name="acute" horiz-adv-x="388" d="M78 567L58 601L274 742L308 684L78 567Z" />
<glyph unicode="&#xb5;" glyph-name="uni00B5" horiz-adv-x="576" d="M64 468H132V192Q132 121 158 84T255 46Q323 46 356 103T390 234V468H458V159Q458 95 469 70T509 45Q519 45 531 47T550 53L560 4Q550 -6 531 -11T493 -16Q454 -16 430 8T400 80Q377 31 342
8T256 -16Q212 -16 183 -3T132 39V-200H64V468Z" />
<glyph unicode="&#xb6;" glyph-name="paragraph" horiz-adv-x="531" d="M245 282Q183 282 135 307T59 378T32 481Q32 539 62 585T147 656T272 682H461V0H386V619H320V0H245V282ZM245 617Q187 617 151 579T114 481Q114 422 150 384T245 346V617Z" />
<glyph unicode="&#xb7;" glyph-name="middot" horiz-adv-x="220" d="M88 199T72 215T56 254Q56 276 72 292T110 308Q133 308 148 292T164 253Q164 231 149 215T110 199Q88 199 72 215Z" />
<glyph unicode="&#xb8;" glyph-name="cedilla" horiz-adv-x="345" d="M58 -173Q107 -173 152 -161Q198 -151 198 -131Q198 -120 190 -115T159 -106T90 -103L138 0H189L156 -68Q207 -68 235 -85T263 -125Q263 -200 58 -200V-173Z" />
<glyph unicode="&#xb9;" glyph-name="uni00B9" horiz-adv-x="270" d="M156 682H210V258H153V588L61 499L30 530L156 682Z" />
<glyph unicode="&#xba;" glyph-name="ordmasculine" horiz-adv-x="408" d="M141 387T101 430T60 542Q60 609 100 652T204 696Q267 696 307 653T348 542Q348 474 308 431T204 387Q141 387 101 430ZM245 434T271 464T297 543Q297 590 271 619T202 649Q162 649 136
619T110 541Q110 494 136 464T204 434Q245 434 271 464ZM60 285V336H348V285H60Z" />
<glyph unicode="&#xbb;" glyph-name="guillemotright" horiz-adv-x="504" d="M103 455L294 268L103 82L60 119L202 269L60 417L103 455ZM273 455L464 268L273 82L230 119L372 269L230 417L273 455Z" />
<glyph unicode="&#xbc;" glyph-name="onequarter" horiz-adv-x="802" d="M156 682H210V258H153V588L61 499L30 530L156 682ZM220 0L468 682H530L282 0H220ZM762 133V81H702V0H645V81H450V128L648 422H702V133H762ZM511 133H645V327L511 133Z" />
<glyph unicode="&#xbd;" glyph-name="onehalf" horiz-adv-x="796" d="M156 682H210V258H153V588L61 499L30 530L156 682ZM220 0L468 682H530L282 0H220ZM496 32Q496 75 521 106T598 181L616 196Q653 228 672 255T692 313Q692 346 676 362T624 379Q598 379 572
363T524 316L484 353Q514 395 547 413T629 431Q682 431 716 399T750 312Q750 279 737 253T705 208T650 159Q565 93 557 54H756V0H496V32Z" />
<glyph unicode="&#xbe;" glyph-name="threequarters" horiz-adv-x="842" d="M254 472T277 445T300 380Q300 323 263 288T165 253Q116 253 80 276T27 346L72 373Q85 338 108 323T170 307Q201 307 222 327T244 380Q244 414 223 435T166 456H129V509H164Q194 509
213 527T232 576Q232 603 214 620T169 637Q137 637 114 621T75 570L30 595Q51 641 87 665T169 689Q222 689 254 659T287 576Q287 544 268 520T214 483Q254 472 277 445ZM290 0L538 682H600L352 0H290ZM802 133V81H742V0H685V81H490V128L688 422H742V133H802ZM551
133H685V327L551 133Z" />
<glyph unicode="&#xbf;" glyph-name="questiondown" horiz-adv-x="461" d="M273 600T289 584T306 546Q306 524 290 508T252 491Q230 491 214 507T197 546Q197 567 214 583T252 600Q273 600 289 584ZM276 352T264 318T230 263T165 210Q133 187 120 159T107 95Q107
31 142 -6T236 -43Q288 -43 322 -18T369 53L432 33Q409 -28 358 -66T234 -105Q183 -105 138 -79T66 -9T39 88Q39 152 62 187T128 256Q160 281 176 296T205 339T217 406H276Q276 352 264 318Z" />
<glyph unicode="&#xc0;" glyph-name="Agrave" horiz-adv-x="585" d="M503 0L433 191H150L87 0H12L254 682H324L573 0H503ZM173 253H410L288 584L173 253ZM398 725L168 812L202 870L418 759L398 725Z" />
<glyph unicode="&#xc1;" glyph-name="Aacute" horiz-adv-x="585" d="M503 0L433 191H150L87 0H12L254 682H324L573 0H503ZM173 253H410L288 584L173 253ZM188 725L168 759L384 870L418 812L188 725Z" />
<glyph unicode="&#xc2;" glyph-name="Acircumflex" horiz-adv-x="585" d="M503 0L433 191H150L87 0H12L254 682H324L573 0H503ZM173 253H410L288 584L173 253ZM156 737L137 771L292 875L448 771L429 737L292 804L156 737Z" />
<glyph unicode="&#xc3;" glyph-name="Atilde" horiz-adv-x="585" d="M503 0L433 191H150L87 0H12L254 682H324L573 0H503ZM173 253H410L288 584L173 253ZM346 741T330 747T294 764Q291 766 278 772T251 781T224 785Q198 785 185 777T166 751H121Q126 790 150 818T219
846Q240 846 257 840T300 821Q320 811 336 806T368 800Q389 800 402 810T418 836H464Q459 795 437 768T368 741Q346 741 330 747Z" />
<glyph unicode="&#xc4;" glyph-name="Adieresis" horiz-adv-x="585" d="M503 0L433 191H150L87 0H12L254 682H324L573 0H503ZM173 253H410L288 584L173 253ZM172 759T157 775T141 814Q141 836 156 851T195 867Q217 867 233 852T250 813Q250 791 234 775T195 759Q172
759 157 775ZM368 759T352 775T336 814Q336 836 352 851T391 867Q413 867 429 852T445 813Q445 791 429 775T391 759Q368 759 352 775Z" />
<glyph unicode="&#xc5;" glyph-name="Aring" horiz-adv-x="585" d="M503 0L433 191H150L87 0H12L254 682H324L573 0H503ZM173 253H410L288 584L173 253ZM251 740T222 769T193 839Q193 880 222 909T292 939Q333 939 362 910T392 839Q392 798 363 769T292 740Q251
740 222 769ZM313 789T327 804T342 839Q342 860 328 874T293 889Q272 889 258 875T243 840Q243 819 257 804T293 789Q313 789 327 804Z" />
<glyph unicode="&#xc6;" glyph-name="AE" horiz-adv-x="822" d="M472 62H783V0H398V198H186L70 0H0L398 680V682H780V619H472V401H712V340H472V62ZM398 253V562L218 253H398Z" />
<glyph unicode="&#xc7;" glyph-name="Ccedilla" horiz-adv-x="605" d="M501 -5T354 -15L328 -68Q379 -68 407 -85T435 -125Q435 -200 230 -200V-173Q280 -173 325 -161Q370 -151 370 -131Q370 -120 362 -115T331 -106T262 -103L303 -15Q186 -4 121 89T55 339Q55
451 87 531T180 654T324 697Q409 697 469 660T564 554L504 519Q472 578 429 603T324 629Q235 629 185 553T134 340Q134 251 157 186T223 87T323 52Q394 52 433 83T507 182L570 144Q501 -5 354 -15Z" />
<glyph unicode="&#xc8;" glyph-name="Egrave" horiz-adv-x="503" d="M79 0V682H461V619H154V381H394V320H154V62H464V0H79ZM387 725L157 812L191 870L407 759L387 725Z" />
<glyph unicode="&#xc9;" glyph-name="Eacute" horiz-adv-x="503" d="M79 0V682H461V619H154V381H394V320H154V62H464V0H79ZM177 725L157 759L373 870L407 812L177 725Z" />
<glyph unicode="&#xca;" glyph-name="Ecircumflex" horiz-adv-x="503" d="M79 0V682H461V619H154V381H394V320H154V62H464V0H79ZM145 737L126 771L281 875L437 771L418 737L281 804L145 737Z" />
<glyph unicode="&#xcb;" glyph-name="Edieresis" horiz-adv-x="503" d="M79 0V682H461V619H154V381H394V320H154V62H464V0H79ZM161 759T146 775T130 814Q130 836 145 851T184 867Q206 867 222 852T239 813Q239 791 223 775T184 759Q161 759 146 775ZM357 759T341
775T325 814Q325 836 341 851T380 867Q402 867 418 852T434 813Q434 791 418 775T380 759Q357 759 341 775Z" />
<glyph unicode="&#xcc;" glyph-name="Igrave" horiz-adv-x="317" d="M55 0V66H121V616H55V682H262V616H196V66H262V0H55ZM264 725L34 812L68 870L284 759L264 725Z" />
<glyph unicode="&#xcd;" glyph-name="Iacute" horiz-adv-x="317" d="M55 0V66H121V616H55V682H262V616H196V66H262V0H55ZM54 725L34 759L250 870L284 812L54 725Z" />
<glyph unicode="&#xce;" glyph-name="Icircumflex" horiz-adv-x="317" d="M55 0V66H121V616H55V682H262V616H196V66H262V0H55ZM22 737L3 771L158 875L314 771L295 737L158 804L22 737Z" />
<glyph unicode="&#xcf;" glyph-name="Idieresis" horiz-adv-x="317" d="M55 0V66H121V616H55V682H262V616H196V66H262V0H55ZM38 759T23 775T7 814Q7 836 22 851T61 867Q83 867 99 852T116 813Q116 791 100 775T61 759Q38 759 23 775ZM234 759T218 775T202 814Q202
836 218 851T257 867Q279 867 295 852T311 813Q311 791 295 775T257 759Q234 759 218 775Z" />
<glyph unicode="&#xd0;" glyph-name="Eth" horiz-adv-x="641" d="M354 682T430 642T546 524T586 340Q586 180 497 90T249 0H80V317H10V365H80V682H249Q354 682 430 642ZM369 68T438 135T507 340Q507 479 438 546T247 613H155V365H272V317H155V68H247Q369 68 438 135Z" />
<glyph unicode="&#xd1;" glyph-name="Ntilde" horiz-adv-x="662" d="M80 0V682H160L507 113V682H582V0H502L155 567V0H80ZM369 741T353 747T317 764Q314 766 301 772T274 781T247 785Q221 785 208 777T189 751H144Q149 790 173 818T242 846Q263 846 280 840T323
821Q343 811 359 806T391 800Q412 800 425 810T441 836H487Q482 795 460 768T391 741Q369 741 353 747Z" />
<glyph unicode="&#xd2;" glyph-name="Ograve" horiz-adv-x="696" d="M263 -16T197 29T93 156T55 340Q55 443 92 524T196 651T348 697Q433 697 499 652T603 525T641 339Q641 236 604 156T500 30T348 -16Q263 -16 197 29ZM410 53T459 89T537 191T565 340Q565 423
537 489T460 592T348 629Q286 629 237 592T159 489T131 340Q131 257 159 192T236 90T348 53Q410 53 459 89ZM453 725L223 812L257 870L473 759L453 725Z" />
<glyph unicode="&#xd3;" glyph-name="Oacute" horiz-adv-x="696" d="M263 -16T197 29T93 156T55 340Q55 443 92 524T196 651T348 697Q433 697 499 652T603 525T641 339Q641 236 604 156T500 30T348 -16Q263 -16 197 29ZM410 53T459 89T537 191T565 340Q565 423
537 489T460 592T348 629Q286 629 237 592T159 489T131 340Q131 257 159 192T236 90T348 53Q410 53 459 89ZM243 725L223 759L439 870L473 812L243 725Z" />
<glyph unicode="&#xd4;" glyph-name="Ocircumflex" horiz-adv-x="696" d="M263 -16T197 29T93 156T55 340Q55 443 92 524T196 651T348 697Q433 697 499 652T603 525T641 339Q641 236 604 156T500 30T348 -16Q263 -16 197 29ZM410 53T459 89T537 191T565 340Q565
423 537 489T460 592T348 629Q286 629 237 592T159 489T131 340Q131 257 159 192T236 90T348 53Q410 53 459 89ZM211 737L192 771L347 875L503 771L484 737L347 804L211 737Z" />
<glyph unicode="&#xd5;" glyph-name="Otilde" horiz-adv-x="696" d="M263 -16T197 29T93 156T55 340Q55 443 92 524T196 651T348 697Q433 697 499 652T603 525T641 339Q641 236 604 156T500 30T348 -16Q263 -16 197 29ZM410 53T459 89T537 191T565 340Q565 423
537 489T460 592T348 629Q286 629 237 592T159 489T131 340Q131 257 159 192T236 90T348 53Q410 53 459 89ZM401 741T385 747T349 764Q346 766 333 772T306 781T279 785Q253 785 240 777T221 751H176Q181 790 205 818T274 846Q295 846 312 840T355 821Q375 811
391 806T423 800Q444 800 457 810T473 836H519Q514 795 492 768T423 741Q401 741 385 747Z" />
<glyph unicode="&#xd6;" glyph-name="Odieresis" horiz-adv-x="696" d="M263 -16T197 29T93 156T55 340Q55 443 92 524T196 651T348 697Q433 697 499 652T603 525T641 339Q641 236 604 156T500 30T348 -16Q263 -16 197 29ZM410 53T459 89T537 191T565 340Q565
423 537 489T460 592T348 629Q286 629 237 592T159 489T131 340Q131 257 159 192T236 90T348 53Q410 53 459 89ZM227 759T212 775T196 814Q196 836 211 851T250 867Q272 867 288 852T305 813Q305 791 289 775T250 759Q227 759 212 775ZM423 759T407 775T391 814Q391
836 407 851T446 867Q468 867 484 852T500 813Q500 791 484 775T446 759Q423 759 407 775Z" />
<glyph unicode="&#xd7;" glyph-name="multiply" horiz-adv-x="500" d="M126 153L88 192L209 314L95 428L134 468L249 354L370 475L409 436L288 315L409 193L369 153L248 275L126 153Z" />
<glyph unicode="&#xd8;" glyph-name="Oslash" horiz-adv-x="696" d="M571 599T606 519T641 339Q641 236 604 156T500 30T348 -16Q276 -16 212 19L173 -63L124 -39L167 52Q114 100 85 174T55 340Q55 443 92 524T196 651T348 697Q409 697 460 673L493 743L545 720L509
645Q571 599 606 519ZM131 274T149 219T201 123L430 610Q390 629 348 629Q286 629 237 592T159 489T131 340Q131 274 149 219ZM410 53T459 89T537 191T565 340Q565 415 542 476T477 577L243 85Q290 53 348 53Q410 53 459 89Z" />
<glyph unicode="&#xd9;" glyph-name="Ugrave" horiz-adv-x="660" d="M206 -16T143 52T80 253V682H155V253Q155 52 332 52Q412 52 458 104T505 253V682H580V253Q580 123 515 54T332 -16Q206 -16 143 52ZM435 725L205 812L239 870L455 759L435 725Z" />
<glyph unicode="&#xda;" glyph-name="Uacute" horiz-adv-x="660" d="M206 -16T143 52T80 253V682H155V253Q155 52 332 52Q412 52 458 104T505 253V682H580V253Q580 123 515 54T332 -16Q206 -16 143 52ZM225 725L205 759L421 870L455 812L225 725Z" />
<glyph unicode="&#xdb;" glyph-name="Ucircumflex" horiz-adv-x="660" d="M206 -16T143 52T80 253V682H155V253Q155 52 332 52Q412 52 458 104T505 253V682H580V253Q580 123 515 54T332 -16Q206 -16 143 52ZM193 737L174 771L329 875L485 771L466 737L329 804L193 737Z" />
<glyph unicode="&#xdc;" glyph-name="Udieresis" horiz-adv-x="660" d="M206 -16T143 52T80 253V682H155V253Q155 52 332 52Q412 52 458 104T505 253V682H580V253Q580 123 515 54T332 -16Q206 -16 143 52ZM209 759T194 775T178 814Q178 836 193 851T232 867Q254
867 270 852T287 813Q287 791 271 775T232 759Q209 759 194 775ZM405 759T389 775T373 814Q373 836 389 851T428 867Q450 867 466 852T482 813Q482 791 466 775T428 759Q405 759 389 775Z" />
<glyph unicode="&#xdd;" glyph-name="Yacute" horiz-adv-x="484" d="M430 682H499L278 279V0H204V282L-15 682H60L246 342L430 682ZM137 725L117 759L333 870L367 812L137 725Z" />
<glyph unicode="&#xde;" glyph-name="Thorn" horiz-adv-x="526" d="M80 682H155V582H299Q391 582 446 529T501 381Q501 288 444 235T291 181H156V0H80V682ZM289 243Q357 243 391 278T426 381Q426 449 391 484T289 520H156V243H289Z" />
<glyph unicode="&#xdf;" glyph-name="germandbls" horiz-adv-x="532" d="M242 -5T194 7L208 73Q248 61 282 61Q346 61 379 102T413 220Q413 275 398 309T344 361T237 379V441Q316 441 348 474T381 563Q381 617 353 646T271 676Q208 676 178 640T148 529V0H80V529Q80
630 130 687T271 744Q351 744 400 695T449 563Q449 512 423 474T344 412Q417 398 454 348T491 220Q491 114 436 55T283 -5Q242 -5 194 7Z" />
<glyph unicode="&#xe0;" glyph-name="agrave" horiz-adv-x="561" d="M498 468V0H430V69Q401 29 359 7T267 -16Q200 -16 147 16T64 105T34 235Q34 307 63 363T145 452T265 484Q316 484 358 462T430 398V468H498ZM313 46T350 70T409 137T430 234Q430 288 409 331T351
398T265 422Q218 422 181 398T123 332T102 235Q102 180 123 137T181 70T265 46Q313 46 350 70ZM356 537L156 624L190 682L376 571L356 537Z" />
<glyph unicode="&#xe1;" glyph-name="aacute" horiz-adv-x="561" d="M498 468V0H430V69Q401 29 359 7T267 -16Q200 -16 147 16T64 105T34 235Q34 307 63 363T145 452T265 484Q316 484 358 462T430 398V468H498ZM313 46T350 70T409 137T430 234Q430 288 409 331T351
398T265 422Q218 422 181 398T123 332T102 235Q102 180 123 137T181 70T265 46Q313 46 350 70ZM236 537L216 571L402 682L436 624L236 537Z" />
<glyph unicode="&#xe2;" glyph-name="acircumflex" horiz-adv-x="561" d="M498 468V0H430V69Q401 29 359 7T267 -16Q200 -16 147 16T64 105T34 235Q34 307 63 363T145 452T265 484Q316 484 358 462T430 398V468H498ZM313 46T350 70T409 137T430 234Q430 288 409
331T351 398T265 422Q218 422 181 398T123 332T102 235Q102 180 123 137T181 70T265 46Q313 46 350 70ZM164 567L145 601L280 725L416 601L397 567L280 644L164 567Z" />
<glyph unicode="&#xe3;" glyph-name="atilde" horiz-adv-x="561" d="M498 468V0H430V69Q401 29 359 7T267 -16Q200 -16 147 16T64 105T34 235Q34 307 63 363T145 452T265 484Q316 484 358 462T430 398V468H498ZM313 46T350 70T409 137T430 234Q430 288 409 331T351
398T265 422Q218 422 181 398T123 332T102 235Q102 180 123 137T181 70T265 46Q313 46 350 70ZM114 603T143 643T217 684Q238 684 254 676T293 649Q313 633 326 626T356 618Q377 618 390 637T406 684H452Q447 632 420 593T346 554Q324 554 310 562T277 587Q259
603 246 610T212 618Q186 618 173 603T154 554H109Q114 603 143 643Z" />
<glyph unicode="&#xe4;" glyph-name="adieresis" horiz-adv-x="561" d="M498 468V0H430V69Q401 29 359 7T267 -16Q200 -16 147 16T64 105T34 235Q34 307 63 363T145 452T265 484Q316 484 358 462T430 398V468H498ZM313 46T350 70T409 137T430 234Q430 288 409
331T351 398T265 422Q218 422 181 398T123 332T102 235Q102 180 123 137T181 70T265 46Q313 46 350 70ZM160 559T145 575T129 614Q129 636 144 651T183 667Q205 667 221 652T238 613Q238 591 222 575T183 559Q160 559 145 575ZM356 559T340 575T324 614Q324 636
340 651T379 667Q401 667 417 652T433 613Q433 591 417 575T379 559Q356 559 340 575Z" />
<glyph unicode="&#xe5;" glyph-name="aring" horiz-adv-x="561" d="M498 468V0H430V69Q401 29 359 7T267 -16Q200 -16 147 16T64 105T34 235Q34 307 63 363T145 452T265 484Q316 484 358 462T430 398V468H498ZM313 46T350 70T409 137T430 234Q430 288 409 331T351
398T265 422Q218 422 181 398T123 332T102 235Q102 180 123 137T181 70T265 46Q313 46 350 70ZM239 560T210 589T181 659Q181 700 210 729T280 759Q321 759 350 730T380 659Q380 618 351 589T280 560Q239 560 210 589ZM301 609T315 624T330 659Q330 680 316 694T281
709Q260 709 246 695T231 660Q231 639 245 624T281 609Q301 609 315 624Z" />
<glyph unicode="&#xe6;" glyph-name="ae" horiz-adv-x="876" d="M683 484T733 456T812 375T840 255Q840 244 838 220H453Q457 148 500 97T617 46Q677 46 716 68T780 131L834 95Q801 43 747 14T619 -16Q568 -16 525 3T449 56Q400 19 353 2T246 -16Q160 -16 108
22T55 133Q55 182 85 217T166 271T276 290Q315 290 334 287T385 272Q378 346 344 385T243 425Q205 425 174 410T118 364L69 399Q103 441 148 462T245 483Q314 483 358 455T420 374Q450 426 501 455T616 484Q683 484 733 456ZM771 276Q761 349 722 385T616 422Q551
422 510 381T457 276H771ZM341 46T417 100Q388 155 385 219Q332 230 286 230Q217 230 174 206T130 136Q130 90 162 68T255 46Q341 46 417 100Z" />
<glyph unicode="&#xe7;" glyph-name="ccedilla" horiz-adv-x="477" d="M421 35T376 11T279 -16L254 -68Q305 -68 333 -85T361 -125Q361 -200 156 -200V-173Q206 -173 251 -161Q296 -151 296 -131Q296 -120 288 -115T257 -106T188 -103L230 -13Q171 -5 127 28T57
115T32 234Q32 306 61 363T144 452T264 484Q321 484 363 460T441 390L391 351Q342 422 264 422Q217 422 180 398T121 331T100 234Q100 180 121 137T179 70T264 46Q312 46 343 62T399 111L452 74Q421 35 376 11Z" />
<glyph unicode="&#xe8;" glyph-name="egrave" horiz-adv-x="525" d="M328 484T379 453T459 369T488 249Q488 230 487 220H102Q106 148 149 97T266 46Q326 46 365 68T429 131L483 95Q450 43 396 14T268 -16Q200 -16 147 16T64 105T34 234Q34 306 63 363T145 452T265
484Q328 484 379 453ZM420 276Q410 349 371 385T265 422Q200 422 159 381T106 276H420ZM338 537L138 624L172 682L358 571L338 537Z" />
<glyph unicode="&#xe9;" glyph-name="eacute" horiz-adv-x="525" d="M328 484T379 453T459 369T488 249Q488 230 487 220H102Q106 148 149 97T266 46Q326 46 365 68T429 131L483 95Q450 43 396 14T268 -16Q200 -16 147 16T64 105T34 234Q34 306 63 363T145 452T265
484Q328 484 379 453ZM420 276Q410 349 371 385T265 422Q200 422 159 381T106 276H420ZM218 537L198 571L384 682L418 624L218 537Z" />
<glyph unicode="&#xea;" glyph-name="ecircumflex" horiz-adv-x="525" d="M328 484T379 453T459 369T488 249Q488 230 487 220H102Q106 148 149 97T266 46Q326 46 365 68T429 131L483 95Q450 43 396 14T268 -16Q200 -16 147 16T64 105T34 234Q34 306 63 363T145
452T265 484Q328 484 379 453ZM420 276Q410 349 371 385T265 422Q200 422 159 381T106 276H420ZM146 567L127 601L262 725L398 601L379 567L262 644L146 567Z" />
<glyph unicode="&#xeb;" glyph-name="edieresis" horiz-adv-x="525" d="M328 484T379 453T459 369T488 249Q488 230 487 220H102Q106 148 149 97T266 46Q326 46 365 68T429 131L483 95Q450 43 396 14T268 -16Q200 -16 147 16T64 105T34 234Q34 306 63 363T145
452T265 484Q328 484 379 453ZM420 276Q410 349 371 385T265 422Q200 422 159 381T106 276H420ZM142 559T127 575T111 614Q111 636 126 651T165 667Q187 667 203 652T220 613Q220 591 204 575T165 559Q142 559 127 575ZM338 559T322 575T306 614Q306 636 322 651T361
667Q383 667 399 652T415 613Q415 591 399 575T361 559Q338 559 322 575Z" />
<glyph unicode="&#xec;" glyph-name="igrave" horiz-adv-x="268" d="M100 0V468H168V0H100ZM126 528L1 669L47 709L162 559L126 528Z" />
<glyph unicode="&#xed;" glyph-name="iacute" horiz-adv-x="268" d="M100 0V468H168V0H100ZM124 528L88 559L203 709L249 669L124 528Z" />
<glyph unicode="&#xee;" glyph-name="icircumflex" horiz-adv-x="268" d="M100 0V468H168V0H100ZM134 720L249 596L213 567L135 639L52 567L18 596L134 720Z" />
<glyph unicode="&#xef;" glyph-name="idieresis" horiz-adv-x="268" d="M100 0V468H168V0H100ZM35 564T21 578T7 614Q7 634 21 648T56 662Q76 662 91 648T106 613Q106 594 91 579T56 564Q35 564 21 578ZM191 564T177 578T162 614Q162 634 176 648T212 662Q232
662 246 648T261 613Q261 594 246 579T212 564Q191 564 177 578Z" />
<glyph unicode="&#xf0;" glyph-name="eth" horiz-adv-x="531" d="M498 216V216Q494 149 464 96T382 14T267 -16Q200 -16 147 16T64 105T34 235Q34 307 63 363T145 452T265 484Q310 484 353 460T423 392Q410 477 376 532T287 623L231 560L199 590L249 645Q214 663
162 680L187 729Q241 710 286 686L340 746L371 717L324 664Q414 605 455 506T498 234V228V216ZM313 46T350 70T409 137T430 234Q430 288 409 331T351 398T265 422Q218 422 181 398T123 332T102 235Q102 180 123 137T181 70T265 46Q313 46 350 70Z" />
<glyph unicode="&#xf1;" glyph-name="ntilde" horiz-adv-x="537" d="M335 484T376 464T442 405T467 313V0H399V283Q399 422 275 422Q203 422 167 371T131 234V0H63V468H131V390Q155 435 194 459T286 484Q335 484 376 464ZM112 603T141 643T215 684Q236 684 252
676T291 649Q311 633 324 626T354 618Q375 618 388 637T404 684H450Q445 632 418 593T344 554Q322 554 308 562T275 587Q257 603 244 610T210 618Q184 618 171 603T152 554H107Q112 603 141 643Z" />
<glyph unicode="&#xf2;" glyph-name="ograve" horiz-adv-x="531" d="M200 -16T147 16T64 105T34 235Q34 307 63 363T145 452T265 484Q332 484 385 452T468 363T498 234Q498 162 469 105T387 16T267 -16Q200 -16 147 16ZM313 46T350 70T409 137T430 234Q430 288
409 331T351 398T265 422Q218 422 181 398T123 332T102 235Q102 180 123 137T181 70T265 46Q313 46 350 70ZM341 537L141 624L175 682L361 571L341 537Z" />
<glyph unicode="&#xf3;" glyph-name="oacute" horiz-adv-x="531" d="M200 -16T147 16T64 105T34 235Q34 307 63 363T145 452T265 484Q332 484 385 452T468 363T498 234Q498 162 469 105T387 16T267 -16Q200 -16 147 16ZM313 46T350 70T409 137T430 234Q430 288
409 331T351 398T265 422Q218 422 181 398T123 332T102 235Q102 180 123 137T181 70T265 46Q313 46 350 70ZM221 537L201 571L387 682L421 624L221 537Z" />
<glyph unicode="&#xf4;" glyph-name="ocircumflex" horiz-adv-x="531" d="M200 -16T147 16T64 105T34 235Q34 307 63 363T145 452T265 484Q332 484 385 452T468 363T498 234Q498 162 469 105T387 16T267 -16Q200 -16 147 16ZM313 46T350 70T409 137T430 234Q430
288 409 331T351 398T265 422Q218 422 181 398T123 332T102 235Q102 180 123 137T181 70T265 46Q313 46 350 70ZM149 567L130 601L265 725L401 601L382 567L265 644L149 567Z" />
<glyph unicode="&#xf5;" glyph-name="otilde" horiz-adv-x="531" d="M200 -16T147 16T64 105T34 235Q34 307 63 363T145 452T265 484Q332 484 385 452T468 363T498 234Q498 162 469 105T387 16T267 -16Q200 -16 147 16ZM313 46T350 70T409 137T430 234Q430 288
409 331T351 398T265 422Q218 422 181 398T123 332T102 235Q102 180 123 137T181 70T265 46Q313 46 350 70ZM99 603T128 643T202 684Q223 684 239 676T278 649Q298 633 311 626T341 618Q362 618 375 637T391 684H437Q432 632 405 593T331 554Q309 554 295 562T262
587Q244 603 231 610T197 618Q171 618 158 603T139 554H94Q99 603 128 643Z" />
<glyph unicode="&#xf6;" glyph-name="odieresis" horiz-adv-x="531" d="M200 -16T147 16T64 105T34 235Q34 307 63 363T145 452T265 484Q332 484 385 452T468 363T498 234Q498 162 469 105T387 16T267 -16Q200 -16 147 16ZM313 46T350 70T409 137T430 234Q430
288 409 331T351 398T265 422Q218 422 181 398T123 332T102 235Q102 180 123 137T181 70T265 46Q313 46 350 70ZM145 559T130 575T114 614Q114 636 129 651T168 667Q190 667 206 652T223 613Q223 591 207 575T168 559Q145 559 130 575ZM341 559T325 575T309 614Q309
636 325 651T364 667Q386 667 402 652T418 613Q418 591 402 575T364 559Q341 559 325 575Z" />
<glyph unicode="&#xf7;" glyph-name="divide" horiz-adv-x="500" d="M228 403T212 419T196 458Q196 480 212 496T250 512Q273 512 288 496T304 458Q304 436 289 420T250 403Q228 403 212 419ZM50 283V338H450V283H50ZM228 92T212 108T196 147Q196 169 212 185T250
201Q273 201 288 185T304 146Q304 124 289 108T250 92Q228 92 212 108Z" />
<glyph unicode="&#xf8;" glyph-name="oslash" horiz-adv-x="531" d="M444 412T471 357T498 234Q498 162 469 105T387 16T267 -16Q228 -16 187 -3L159 -62L108 -39L137 23Q88 56 61 111T34 235Q34 307 63 363T145 452T265 484Q307 484 346 470L387 558L439 535L397
445Q444 412 471 357ZM102 186T118 147T165 82L319 413Q295 422 265 422Q218 422 181 398T123 332T102 235Q102 186 118 147ZM313 46T350 70T409 137T430 234Q430 281 414 320T368 385L214 54Q240 46 265 46Q313 46 350 70Z" />
<glyph unicode="&#xf9;" glyph-name="ugrave" horiz-adv-x="537" d="M474 468V0H406V78Q382 33 343 9T251 -16Q202 -16 161 4T95 63T70 155V468H138V185Q138 46 262 46Q334 46 370 97T406 234V468H474ZM344 537L144 624L178 682L364 571L344 537Z" />
<glyph unicode="&#xfa;" glyph-name="uacute" horiz-adv-x="537" d="M474 468V0H406V78Q382 33 343 9T251 -16Q202 -16 161 4T95 63T70 155V468H138V185Q138 46 262 46Q334 46 370 97T406 234V468H474ZM224 537L204 571L390 682L424 624L224 537Z" />
<glyph unicode="&#xfb;" glyph-name="ucircumflex" horiz-adv-x="537" d="M474 468V0H406V78Q382 33 343 9T251 -16Q202 -16 161 4T95 63T70 155V468H138V185Q138 46 262 46Q334 46 370 97T406 234V468H474ZM152 567L133 601L268 725L404 601L385 567L268 644L152 567Z" />
<glyph unicode="&#xfc;" glyph-name="udieresis" horiz-adv-x="537" d="M474 468V0H406V78Q382 33 343 9T251 -16Q202 -16 161 4T95 63T70 155V468H138V185Q138 46 262 46Q334 46 370 97T406 234V468H474ZM148 559T133 575T117 614Q117 636 132 651T171 667Q193
667 209 652T226 613Q226 591 210 575T171 559Q148 559 133 575ZM344 559T328 575T312 614Q312 636 328 651T367 667Q389 667 405 652T421 613Q421 591 405 575T367 559Q344 559 328 575Z" />
<glyph unicode="&#xfd;" glyph-name="yacute" horiz-adv-x="449" d="M385 468H449L196 -200H128L202 -9L10 468H81L236 80L385 468ZM180 537L160 571L346 682L380 624L180 537Z" />
<glyph unicode="&#xfe;" glyph-name="thorn" horiz-adv-x="565" d="M366 484T419 452T502 363T532 233Q532 161 503 105T421 16T301 -16Q250 -16 208 6T136 70V-200H68V682H136V399Q165 439 207 461T299 484Q366 484 419 452ZM348 46T385 70T443 136T464 233Q464
288 443 331T385 398T301 422Q253 422 216 398T157 331T136 234Q136 180 157 137T215 70T301 46Q348 46 385 70Z" />
<glyph unicode="&#xff;" glyph-name="ydieresis" horiz-adv-x="449" d="M385 468H449L196 -200H128L202 -9L10 468H81L236 80L385 468ZM104 559T89 575T73 614Q73 636 88 651T127 667Q149 667 165 652T182 613Q182 591 166 575T127 559Q104 559 89 575ZM300 559T284
575T268 614Q268 636 284 651T323 667Q345 667 361 652T377 613Q377 591 361 575T323 559Q300 559 284 575Z" />
<glyph unicode="&#x2013;" glyph-name="endash" horiz-adv-x="527" d="M56 213V268H472V213H56Z" />
<glyph unicode="&#x2014;" glyph-name="emdash" horiz-adv-x="723" d="M56 213V268H667V213H56Z" />
<glyph unicode="&#x2018;" glyph-name="quoteleft" horiz-adv-x="188" d="M74 560T58 576T42 617Q42 663 68 709T133 781L149 771Q110 733 96 668Q118 668 134 652T150 614Q150 591 135 576T96 560Q74 560 58 576Z" />
<glyph unicode="&#x2019;" glyph-name="quoteright" horiz-adv-x="168" d="M40 567Q78 605 93 670Q70 670 55 686T39 725Q39 747 54 763T92 779Q116 779 131 764T147 724Q147 672 122 625T57 557L40 567Z" />
<glyph unicode="&#x201a;" glyph-name="quotesinglbase" horiz-adv-x="204" d="M49 -111Q87 -73 102 -8Q79 -8 64 8T48 47Q48 69 63 85T101 101Q124 101 140 82T156 37Q156 -5 131 -50T66 -121L49 -111Z" />
<glyph unicode="&#x201c;" glyph-name="quotedblleft" horiz-adv-x="345" d="M74 560T58 575T42 613Q42 666 68 714T133 781L149 771Q109 733 97 668Q119 668 134 652T150 614Q150 591 135 576T96 560Q74 560 58 575ZM230 560T214 575T197 613Q197 665 222 712T288
781L304 771Q266 733 251 668Q273 668 289 652T305 614Q305 591 290 576T252 560Q230 560 214 575Z" />
<glyph unicode="&#x201d;" glyph-name="quotedblright" horiz-adv-x="342" d="M40 567Q78 605 93 670Q70 670 55 686T39 725Q39 747 54 763T92 779Q115 779 131 763T147 725Q147 671 123 626T57 557L40 567ZM195 567Q233 605 248 670Q226 670 210 686T194 725Q194
747 210 763T248 779Q271 779 286 763T302 725Q302 670 278 625T212 557L195 567Z" />
<glyph unicode="&#x201e;" glyph-name="quotedblbase" horiz-adv-x="399" d="M49 -111Q87 -73 102 -8Q79 -8 64 8T48 47Q48 69 63 85T101 101Q124 101 140 85T156 47Q157 -6 134 -51T66 -121L49 -111ZM244 -111Q282 -73 297 -8Q274 -8 259 8T243 47Q243 69 258
85T296 101Q319 101 335 85T351 47Q351 8 343 -17T317 -65T261 -121L244 -111Z" />
<glyph unicode="&#x2022;" glyph-name="bullet" horiz-adv-x="329" d="M133 117T106 133T62 177T45 239Q45 270 61 298T106 342T165 359Q216 359 250 324T284 237Q284 187 250 152T165 117Q133 117 106 133Z" />
<glyph unicode="&#x2039;" glyph-name="guilsinglleft" horiz-adv-x="334" d="M274 417L132 269L274 119L231 82L40 268L231 455L274 417Z" />
<glyph unicode="&#x203a;" glyph-name="guilsinglright" horiz-adv-x="334" d="M103 455L294 268L103 82L60 119L202 269L60 417L103 455Z" />
</font>
</defs>
</svg>
